영화

에일리언 프레데터 Alien Predator.2018.1080p.AMZN.WEB-DL.x264.AAC.5.1.-.Hon3yHD…

본문

ea2f24eafa8bfb4854d5bb49bc5a1227.jpg
Format : Matroska Format version : Version 4 / Version 2 File size : 1.69 GiB Duration : 1 h 27 min Overall bit rate : 2 752 kb/s Movie name : Alien Predator.2018.1080p.AMZN.WEB-DL.x264.AAC.5.1.-.Hon3yHD Video ID : 1 Format : AVC Format/Info : Advanced Video Codec Format profile : [email protected] Format settings : CABAC / 4 Ref Frames Format settings, CABAC : Yes Format settings, RefFrames : 4 frames Codec ID : V_MPEG4/ISO/AVC Duration : 1 h 27 min Bit rate : 2 500 kb/s Width : 1 920 pixels Height : 1 080 pixels Display aspect ratio : 16:9 Frame rate mode : Constant Frame rate : 23.976 (24000/1001) FPS Audio ID : 2 Format : AAC Format/Info : Advanced Audio Codec Format profile : LC Codec ID : A_AAC-2 Duration : 1 h 27 min Bit rate : 317 kb/s Channel(s) : 6 channels Channel positions : Front: L C R, Side: L R, LFE Sampling rate : 48.0 kHz Frame rate : 46.875 FPS (1024 SPF) Compression mode : Lossy Delay relative to video : 9 ms Stream size : 199 MiB (12%) Title : Hon3yHD.to Language : English Text ID : 3 Format : UTF-8 Codec ID : S_TEXT/UTF8 Codec ID/Info : UTF-8 Plain Text Duration : 1 h 24 min Bit rate : 65 b/s Count of elements : 1249 Stream size : 40.6 KiB (0%) Title : Hon3yHD.to Language : EnglishAlien Predator.2018.1080p.AMZN.WEB-DL.x264.AAC.5.1.-.Hon3yHD.mkv (1.7GB)
0
로그인 후 평가 가능합니다.

댓글목록 0

등록된 댓글이 없습니다.